#TITLE:Bravin' Bad Brew;
#SUBTITLE:- Venus Versus Virus Opening;
#ARTIST:Riryka;
#TITLETRANSLIT:;
#SUBTITLETRANSLIT:;
#ARTISTTRANSLIT:;
#CREDIT:Tweety;
#BANNER:venusop-logo.jpg;
#BACKGROUND:venusop-bg.jpg;
#LYRICSPATH:trance.lrc;
#CDTITLE:cdtitle02.png;
#MUSIC:bravin' bad brew (tv size).mp3;
#OFFSET:0.360;
#SAMPLESTART:42.511;
#SAMPLELENGTH:12.000;
#SELECTABLE:YES;
#BPMS:0.000=140.060;
#STOPS:;
#BGCHANGES:0.500=venusOP.avi=1.000=1=0=1,
207.750=venusop-bg.jpg=1.000=0=0=1,
99999=-nosongbg-=1.000=0=0=0 // don't automatically add -songbackground-
;
// cache tags:
#FIRSTBEAT:4.000;
#LASTBEAT:207.750;
#SONGFILENAME:songs/Otaku's Dream 3rd Anime Mix/[Tweety3187] Bravin' Bad Brew - Venus Versus Virus OP/trance.sm;
#HASMUSIC:1;
#HASBANNER:1;
#MUSICLENGTH:89.712;
// end cache tags

//---------------dance-single - ----------------
#NOTES:
     dance-single:
     :
     Challenge:
     13:
     1.000,1.000,1.000,0.067,1.000,731.000,281.000,6.000,0.000,0.000:
0000
0000
0000
0000
,
1000
0100
0010
0001
1000
0100
0010
0001
1000
0100
0010
0001
1000
0100
0010
0001
,
0001
0010
0100
1000
0001
0010
0100
1000
0001
0010
0100
1000
0001
0010
0100
1000
,
0010
1000
0010
1000
0010
1000
0010
1000
0100
1000
0100
1000
0100
1000
0100
1000
,
0010
0001
0010
0001
0010
0001
0010
0001
0100
0001
0100
0001
0100
0001
0100
0001
,
1010
0100
0010
1000
0010
1000
0101
0000
0000
0000
0011
0000
0101
0000
0011
0011
,
1010
0100
0010
0100
0010
0001
1100
0000
0000
0000
0110
0000
1010
0000
0110
0000
,
1001
0000
0000
0011
0000
0000
1010
0000
1100
0000
0000
0011
0000
0000
0101
0000
,
1001
0100
0010
0100
0010
0001
0010
0100
1000
0100
0010
0100
1000
0100
0010
0100
,
1000
0001
1000
0010
1000
0001
1000
0010
1000
0100
0010
0100
0001
0010
0100
1000
,
0001
0010
0100
1000
0100
0010
0100
0010
0001
0010
0100
1000
0010
1000
0100
0010
,
0001
0010
0100
1000
0000
0000
0001
0010
0100
1000
0000
0000
0001
0010
0100
1000
0000
0000
0001
0010
0100
1000
0000
0000
0000
0000
0000
0101
0000
0000
0000
0000
0000
1010
0000
0000
0000
0000
0000
1010
0000
0000
0000
0000
0000
1001
0000
0000
,
0011
0100
0010
0100
1010
0100
1000
0100
1000
0011
0011
0000
0101
0101
0000
0000
,
1010
0001
0100
1000
0011
0100
0010
0100
0001
1100
1100
0000
0011
1100
0000
0000
,
1010
0001
1000
0001
0110
1000
0010
0100
0001
0110
0110
0000
0110
1001
0000
0000
,
0101
0010
1000
0010
0100
1000
0100
1000
0100
0011
0000
0011
0000
0011
0000
1001
,
0011
0100
1000
0010
0101
1000
0100
0001
1010
0100
1001
0010
0100
0011
1000
0010
,
0101
1000
0100
1000
0110
0001
1000
0010
0101
0001
1010
0100
0001
0110
1000
0100
,
0011
1000
0100
0010
1100
0001
0010
0001
0110
0001
1010
0100
0001
0110
1000
0001
,
1100
0010
0100
0001
1010
0100
0010
0100
0011
0100
1001
0000
0000
0000
0000
0000
,
0101
0010
1000
0100
0011
1000
0010
0100
0011
0100
1010
0001
0100
0011
1000
0010
,
1100
0100
0010
1000
0011
0100
0010
1000
0101
1000
0110
0001
1000
0101
0010
0010
,
1100
0001
0100
0010
1001
0100
0010
0100
0011
0100
1010
0001
0100
1010
0001
0001
,
1010
0000
0100
0000
0010
0000
0001
0000
1010
0000
0100
0000
0010
0000
0100
0000
1001
0010
1000
0010
1000
0000
0100
0000
0011
1000
0010
1000
0010
0000
0100
0000
,
0011
1010
0110
0011
1001
0000
0010
0000
0101
0110
1100
1100
1100
0000
0010
0000
,
1001
0110
0011
0101
0011
0000
1000
0000
0110
0011
1100
0011
1010
0000
0100
0000
,
0011
0011
1100
1100
0101
0000
0010
0000
1001
1001
1001
1001
0110
0000
0001
0000
,
0110
0110
1010
0101
1001
0000
1000
0000
1001
0011
0101
1010
1010
0000
0100
0000
,
1010
0101
1010
0101
1010
0000
0001
0000
0110
0011
1100
0011
1001
0000
0100
0000
,
0011
0101
0011
0011
1100
0000
0010
0000
1100
0011
0101
1010
1001
0000
0100
0000
,
0011
0011
0011
0011
1100
0000
0010
0000
1100
1100
1100
1100
0011
0000
0100
0000
,
1001
1001
1001
1001
0110
0000
0100
0000
1010
1010
0101
0101
1001
0000
0102
0000
,
1000
0100
0010
0100
1000
0100
0010
0100
1000
0100
0010
0100
1000
0100
0013
0100
,
1001
0010
0001
0100
1010
0100
0001
0010
1100
0001
0110
0001
1010
0001
0110
2100
,
0010
0001
0010
3001
0110
0001
1000
0010
1100
0001
0011
0100
1010
0100
0011
0100
,
1010
0010
0010
0101
1000
0000
0110
0001
1010
0100
0100
0011
1000
0000
0101
0101
,
0101
0000
0000
0101
0000
0000
0101
0000
0000
0101
0000
0000
0101
1010
0101
1010
,
0101
0010
1000
0100
0011
1000
0010
0100
1001
0010
1100
0001
0110
0001
1010
0102
,
0010
1000
0100
0013
1100
0010
0100
0001
1010
0100
0011
1000
0101
0010
1010
0100
,
1001
0010
0100
0011
1000
0001
0110
0001
1010
0100
0001
0110
0001
0100
1001
1001
,
1001
0000
0010
0000
0100
0000
1001
0000
0010
0000
0100
0000
1001
0000
0010
0000
0100
0010
1001
0010
0100
0000
0000
0010
1001
0100
0010
0100
1001
0000
0110
0000
,
0011
0100
1010
0001
0110
1000
0011
0101
0000
0110
1010
0100
0001
0100
1010
1010
,
0101
0010
1100
0001
0110
1000
0101
0101
0000
0110
0110
1000
0001
0010
0100
1000
,
0011
0100
1000
0110
0000
1000
0101
0011
0011
0100
1000
0110
0001
0010
1100
1100
,
2100
0000
0010
0010
0000
0001
0001
0000
0010
0010
0000
0100
0010
0001
0100
3000
,
0101
1000
0101
0010
0101
0000
1001
2001
0010
0100
0010
3001
0110
0001
0010
0100
,
0011
1000
0101
0010
1001
0000
0011
0102
0000
0000
0010
0100
1000
0100
1000
0103
,
1010
0100
0010
0101
0010
0000
0011
0100
0011
0100
0010
1100
1000
0000
0110
0110
,
1001
0010
0100
0010
1100
0001
0100
0010
0101
0010
1001
0100
1000
0110
0001
1000
,
0011
1000
0100
0001
1010
0001
0100
0001
0110
0001
1100
0010
0100
0011
1000
0100
,
1010
0100
0010
0001
0110
0001
0100
1000
0011
0100
1010
0100
0001
0110
0001
1000
,
0011
1000
0100
1000
0110
0001
0010
0100
0010
1001
0000
1001
0000
1001
0000
1001
;

//---------------dance-single - ----------------
#NOTES:
     dance-single:
     :
     Hard:
     12:
     1.000,1.000,1.000,0.100,1.000,647.000,203.000,9.000,0.000,0.000:
0000
0000
0000
0000
,
1000
0100
0010
0001
1000
0100
0010
0001
1000
0100
0010
0001
1000
0100
0010
0001
,
0001
0010
0100
1000
0001
0010
0100
1000
0001
0010
0100
1000
0001
0010
0100
1000
,
0010
1000
0010
1000
0010
1000
0010
1000
0100
1000
0100
1000
0100
1000
0100
1000
,
0010
0001
0010
0001
0010
0001
0010
0001
0100
0001
0100
0001
0100
0001
0100
0001
,
2010
0000
0010
0000
3010
0000
0101
0000
0000
0000
0011
0000
0101
0000
0011
0012
,
1000
0010
0013
1100
0000
0110
1010
0110
,
1001
0000
0000
0011
0000
0000
1010
0000
1100
0000
0000
0011
0000
0000
0101
0000
,
1001
0100
0010
0100
0010
0001
0010
0100
1000
0100
0010
0100
1000
0100
0010
0100
,
1000
0001
1000
0010
1000
0001
1000
0010
1000
0100
0010
0100
0001
0010
0100
1000
,
0001
0010
0100
1000
0100
0010
0100
0010
0001
0010
0100
1000
0010
1000
0100
0010
,
0001
0010
0100
1000
0000
0000
0001
0010
0100
1000
0000
0000
0001
0010
0100
1000
0000
0000
0001
0010
0100
1000
0000
0000
0000
0000
0000
0101
0000
0000
0000
0000
0000
1010
0000
0000
0000
0000
0000
1010
0000
0000
0000
0000
0000
1001
0000
0000
,
0011
0100
0010
0100
1010
0100
1000
0100
1000
0000
0011
0000
0000
0101
0000
0000
,
1010
0001
0100
1000
0011
0100
0010
0100
0001
0000
1100
0000
0000
1100
0000
0000
,
1010
0001
1000
0001
0110
1000
0010
0100
0001
0000
0110
0000
0000
1001
0000
0000
,
0101
0010
1000
0010
0100
1000
0100
1000
0100
0011
0000
0011
0000
0011
0000
1001
,
0011
0100
1000
0010
0001
1000
0100
0001
1000
0100
1001
0010
0100
0011
1000
0010
,
0101
1000
0100
1000
0100
0001
1000
0010
0100
0001
1010
0100
0001
0110
1000
0100
,
0011
1000
0100
0010
1000
0001
0010
0001
0100
0001
1010
0100
0001
0110
1000
0001
,
1100
0010
0100
0001
1000
0100
0010
0100
0001
0100
1001
0000
0000
0000
0000
0000
,
0101
0010
1000
0100
0001
1000
0010
0100
0010
0100
1010
0001
0100
0011
1000
0010
,
1100
0100
0010
1000
0001
0100
0010
1000
0001
1000
0110
0001
1000
0101
0010
0010
,
1100
0001
0100
0010
0001
0100
0010
0100
0010
0100
1010
0001
0100
1010
0001
0001
,
1010
0100
0010
0001
1000
0100
0010
0100
0001
1000
0010
0100
0011
1000
0010
0100
,
0011
1000
0010
0100
1001
0000
0010
0000
0101
0010
0100
0010
1100
0000
0010
0000
,
1001
0100
0010
0100
0011
0000
1000
0000
0110
0001
1000
0001
1010
0000
0100
0000
,
0011
0001
0100
1000
0101
0000
0010
0000
1001
0010
1000
0001
0110
0000
0001
0000
,
0110
0001
1000
0100
1001
0000
1000
0000
1001
0010
0001
0100
1010
0000
0100
0000
,
1010
0001
1000
0100
1010
0000
0001
0000
0110
0001
1000
0010
1001
0000
0100
0000
,
0011
0100
0001
0001
1100
0000
0010
0000
1100
0010
0001
0010
1001
0000
0100
0000
,
0011
0100
0010
0001
1100
0000
0010
0000
1100
0010
1000
0100
0011
0000
0100
0000
,
1001
0001
1000
0001
0110
0000
0100
0000
1010
0001
0100
0010
1001
0000
0102
0000
,
1000
0100
1000
0100
1000
0100
1000
0100
1000
0100
1000
0100
1000
0100
1003
0100
,
1001
0010
0001
0100
1010
0100
0001
0010
1100
0000
0110
0000
1010
0000
0110
2100
,
0010
0001
0010
3001
0110
0001
1000
0010
1100
0000
0011
0000
1010
0000
0011
0000
,
1010
0000
0000
0101
0000
0000
0110
0000
1010
0000
0000
0011
0000
0000
0101
1010
,
0101
0000
0000
0101
0000
0000
0101
0000
0000
0101
0000
0000
0101
0000
0101
0000
,
0101
2010
0001
0100
0001
0100
3010
0100
1001
0000
1100
0000
0110
0000
1010
0102
,
0010
1000
0100
0013
1100
0010
0100
0001
1010
0000
0011
0000
0101
0000
1010
0000
,
1001
0010
0100
0011
0000
0000
0110
0001
1010
0100
0001
0110
0000
0000
1001
1001
,
1001
0010
0100
0001
0010
0100
1000
0100
0010
0100
0001
1000
0100
0010
1100
1100
,
0011
0000
1010
0000
0110
0000
0011
0101
0000
0110
1010
0000
0001
0100
1010
1010
,
0101
0000
1100
0000
0110
0000
0101
0101
0000
0110
0110
0000
0001
0010
0100
1000
,
0011
0000
0000
0110
0000
0000
0101
0011
0011
0000
0000
0110
0000
0000
1100
1100
,
2100
0000
0010
0010
0000
0001
0001
0000
0010
0010
0000
0100
0010
0001
0100
3000
,
0101
0000
0101
0000
0101
0000
1001
2001
0000
0000
0010
3001
0110
0001
0010
0100
,
0011
0000
0101
0000
1001
0000
0011
0102
0000
0000
0010
0100
1000
0100
1000
0103
,
1010
0100
0010
0101
0000
0000
0011
0100
0011
0100
0010
1100
0000
0000
0110
0110
,
1001
0010
0100
0010
1100
0001
0100
0010
0101
0010
1001
0000
0000
0110
0000
0000
,
0011
1000
0100
0001
1010
0001
0100
0001
0110
0000
1100
0000
0000
0011
0000
0000
,
1010
0100
0010
0001
0110
0001
0100
1000
0011
0000
1010
0000
0000
0110
0000
0000
,
0011
1000
0100
1000
0100
0001
0010
0100
0010
1001
0000
1001
0000
1001
0000
1001
;

//---------------dance-single - ----------------
#NOTES:
     dance-single:
     :
     Medium:
     6:
     0.433,0.635,0.658,0.301,0.000,186.000,59.000,27.000,0.000,0.000:
0000
0000
0000
0000
,
2200
0000
0000
3300
,
0022
0000
0000
0033
,
0220
0000
0000
0330
,
2002
0000
0000
3003
,
2001
0001
0001
3001
,
1002
1000
1000
1003
,
1001
0000
0110
0000
,
2002
0000
0000
0000
,
0000
0000
0000
0000
,
0000
0000
0000
0000
,
3003
0000
0000
0000
,
1000
0100
1000
1001
,
0101
0010
1000
0101
,
1010
0001
0100
0011
,
0011
1000
0010
1100
,
1001
0001
0100
0010
,
0100
0010
0010
0100
,
0001
1000
0010
0100
,
0010
0000
0010
0000
0001
0001
0000
0000
,
1010
0100
0010
1000
,
0001
0100
0010
0001
,
1000
1000
1000
0001
,
0100
0000
0010
0000
0100
0001
0000
0000
,
2010
0010
0010
0010
0001
0001
0001
3001
,
0120
0100
0100
0100
1000
1000
1000
1030
,
0011
1010
0110
0011
,
1010
1100
0101
1001
,
0012
1000
1000
1000
0100
0100
0100
0103
,
2010
0010
0010
0010
0001
0001
0001
3001
,
0010
0100
0001
1000
,
1002
0010
1000
0010
,
2000
0000
0000
3003
,
1001
0010
0100
0001
,
0011
0100
0010
1000
,
1001
0110
0011
1100
,
0012
0010
1000
1003
,
0110
1000
0001
0010
,
1001
0100
0010
0100
,
0011
1010
0110
1100
,
2001
0001
0001
3001
,
0010
0010
0010
0000
1000
1000
1000
0000
,
0001
0001
0001
0000
0100
0010
0100
0000
,
1001
0011
1100
0110
,
0210
0010
0001
0301
,
2001
0000
0000
0001
0000
0000
3000
0000
,
0012
0000
0000
0100
0000
0000
0003
0000
,
2020
0000
0000
3030
0202
0000
0000
0303
,
1010
0100
0001
0010
,
0011
0100
0010
1000
,
0101
0010
1000
0001
,
1100
0010
0100
1001
;

//---------------dance-single - Copied from----------------
#NOTES:
     dance-single:
     Copied from:
     Easy:
     4:
     0.382,0.404,0.502,0.301,0.000,168.000,45.000,27.000,0.000,0.000:
0000
0000
0000
0000
,
2020
0000
0000
3030
,
0202
0000
0000
0303
,
2002
0000
0000
3003
,
0220
0000
0000
0330
,
0120
0100
0100
0130
,
0210
0010
0010
0310
,
0110
0000
1001
0000
,
0220
0000
0000
0000
,
0000
0000
0000
0000
,
0000
0000
0000
0000
,
0330
0000
0000
0000
,
0010
1000
0010
0100
,
1100
0001
0010
0100
,
0011
0100
1000
0100
,
0101
0010
0001
1000
,
0110
0100
1000
0001
,
1000
0001
0001
1000
,
0100
0010
0001
1000
,
0001
0000
0001
0000
0100
0100
0000
0000
,
0011
1000
0001
0010
,
0100
1000
0001
0100
,
0010
0010
0010
0100
,
1000
0000
0001
0000
1000
0100
0000
0000
,
0021
0000
0001
0000
0100
0000
0100
0030
,
1002
0000
1000
0000
0010
0000
0010
0003
,
0101
0010
1001
0100
,
0011
1000
1100
0010
,
0201
0000
0010
0000
1000
0000
1000
0300
,
0021
0000
0001
0000
0100
0000
0100
0030
,
0001
1000
0100
0010
,
0210
0001
0010
0001
,
0020
0000
0000
0330
,
0110
0001
1000
0100
,
0101
1000
0001
0010
,
0110
1000
0101
0010
,
0201
0001
0010
0310
,
1001
0010
0100
0001
,
0110
1000
0001
1000
,
0101
0010
1001
1000
,
0120
0100
0100
0130
,
0001
0001
0001
0000
0010
0000
0010
0000
,
0100
0100
0100
0000
1000
0000
1000
0000
,
0110
0100
1010
0001
,
2001
0001
0100
3100
,
0120
0000
0000
0100
0000
0000
0030
0000
,
0201
0000
0000
1000
0000
0000
0300
0000
,
0022
0000
0000
0033
2200
0000
0000
3300
,
0011
1000
0100
0001
,
0101
1000
0001
0010
,
1100
0001
0010
0100
,
1010
0001
1000
0110
;

//---------------dance-single - Copied from Copied f----------------
#NOTES:
     dance-single:
     Copied from Copied f:
     Beginner:
     3:
     0.288,0.288,0.134,0.234,0.000,148.000,12.000,21.000,0.000,0.000:
0000
0000
0000
0000
,
0200
0000
0000
0300
,
0020
0000
0000
0030
,
0200
0000
0000
0300
,
0002
0000
0000
0003
,
1002
0000
1000
0003
,
2001
0000
0001
3000
,
1001
0000
0100
0000
,
2002
0000
0000
0000
,
0000
0000
0000
0000
,
0000
0000
0000
0000
,
3003
0000
0000
0000
,
0001
0100
0001
1000
,
0100
0010
0001
1000
,
0001
1000
0100
1000
,
0010
0001
0010
0100
,
0001
1000
0100
0010
,
0100
0010
0010
0100
,
1000
0001
0010
0100
,
0010
0000
0010
0000
1000
1000
0000
0000
,
0001
0100
0010
0001
,
1000
0100
0010
1000
,
0001
0001
0001
1000
,
0100
0000
0010
0000
0100
1000
0000
0000
,
0012
0000
0000
0000
1000
0000
0000
0003
,
0120
0000
0000
0000
0001
0000
0000
0030
,
0010
0001
0010
1000
,
0001
0100
0100
0001
,
2010
0000
0000
0000
0100
0000
0000
3000
,
0012
0000
0000
0000
1000
0000
0000
0003
,
0010
0100
1000
0001
,
2001
0000
0001
0000
,
0002
0000
0000
3003
,
1000
0010
0100
1000
,
0010
0100
0010
0001
,
1000
0100
0010
0001
,
2010
0000
0001
3000
,
0100
0001
1000
0010
,
0001
0100
0010
0100
,
1000
0001
0010
0100
,
1002
0000
1000
0003
,
0010
0010
0001
0001
,
1000
1000
0100
0100
,
0001
1000
0001
0010
,
0200
0010
1000
1300
,
0002
0000
1000
0003
,
2010
0000
0001
3000
,
0002
0000
0000
0000
2000
0000
0000
3003
,
0001
0100
1000
0010
,
0010
0100
0010
0001
,
1000
0010
0001
1000
,
0100
0010
0100
0001
;
